Most viewed

Amazons Mechanical Turk is the prime example of this form of man/machine symbiosis, where workers rank options, perform sentence evaluations, and take short surveys from their devices to share their thoughts and feelings.The specifically human traits of empathy, language comprehension..
Read more
Experience improved speed and quality while you edit or pose models with OpenSubdiv features that include support for adaptive subdivision in the viewports and at render time.Externally reference objects to your scene and animate them or edit material on the..
Read more

Hunger games 2012 ost


hunger games 2012 ost

Flac Track gain : crack assassin's creed 2 ita -6.14 dB Peak :.946991 CRC32 hash (test run) : 727E2B66 CRC32 hash : 727E2B66 CRC32 hash (skip zero) : 8E8D811E AccurateRip signature : 1C55681D - Track not present in AccurateRip database.
The Decemberists - One Engine (3:02).
Flac Track gain : -3.04 dB Peak :.902313 CRC32 hash (test run) : E29E1102 CRC32 hash : E29E1102 CRC32 hash (skip zero) : 0E05E916 AccurateRip signature : EA486ACA - Track not present in AccurateRip database.Read offset correction : 102, max retry count : 20, gap status : Analyzed, Appended.Statistics Read error : 0 Jitter error (maybe fixed) geekbench 2 ios results : 0 Retry sector count : 0 Damaged sector count : 0 Track 15 Filename : /Users/royostrowski/Desktop/15 - Lover Is Childlike.Miranda Lambert - Run Daddy Run (feat.Arcade Fire - Abraham's Daughter (3:22).Statistics Read error : 0 Jitter error (maybe fixed) : 0 Retry sector count : 0 Damaged sector count : 0 Track 12 Filename : /Users/royostrowski/Desktop/12 - Run Daddy Run.Birdy - Just A Game.
Healing Katniss (3:04).
The Cave (3:13).
Flac Track gain : -4.46 dB Peak :.967682 CRC32 hash (test run) : F08E8A9B CRC32 hash : F08E8A9B CRC32 hash (skip zero) : A6F9FA5F AccurateRip signature : B816FC9B - Track not present in AccurateRip database.The Secret Sisters - Tomorrow Will Be Kinder (3:26).Taylor Swift - Eyes Open (4:05).The Low Anthem - Lover Is Childlike (4:16).Statistics Read error : 0 Jitter error (maybe fixed) : 0 Retry sector count : 0 Damaged sector count : 0 Track 05 Filename : /Users/royostrowski/Desktop/05 - The Rule And The Killer.The Civil Wars" isrc usum71120255 REM replaygain_track_gain -6.54 dB REM replaygain_track_peak.946472 index 01 09:46:48 track 05 audio title "The Rule And The Killer" performer "Kid Cudi" isrc usum71201806 REM replaygain_track_gain -4.37 dB REM replaygain_track_peak.977753 index 01 13:46:53 track 06 audio title "Dark Days".Flac Track gain : -7.78 dB Peak :.979187 CRC32 hash (test run) : 929F7ECF CRC32 hash : 929F7ECF CRC32 hash (skip zero) : 8525766F AccurateRip signature : EA863378 - Track not present in AccurateRip database.Penthouse / Training (3:36).




Sitemap